Code:
General

Complete name               : KVPG(2016) - BDrip - 1080P - x264 - DTS HDMA - Esubs - BluMaster.mkv
Format                      : Matroska
Format version              : Version 2
File size                   : 10.5 GiB
Duration                    : 2h 25mn
Overall bit rate            : 10.4 Mbps
Encoded date                : UTC 2016-06-16 04:31:42
Writing application         : mkvmerge v7.7.0 ('Six Voices') 32bit built on Feb 28 2015 23:23:00
Writing library             : libebml v1.3.1 + libmatroska v1.4.2

Video
ID                          : 1
Format                      : AVC
Format/Info                 : Advanced Video Codec
Format profile              : High@L4
Format settings, CABAC      : Yes
Format settings, ReFrames   : 4 frames
Codec ID                    : V_MPEG4/ISO/AVC
Duration                    : 2h 25mn
Bit rate                    : 7 500 Kbps
Width                       : 1 920 pixels
Height                      : 792 pixels
Display aspect ratio        : 2.40:1
Frame rate mode             : Constant
Frame rate                  : 24.000 fps
Color space                 : YUV
Chroma subsampling          : 4:2:0
Bit depth                   : 8 bits
Scan type                   : Progressive
Bits/(Pixel*Frame)          : 0.206
Stream size                 : 7.60 GiB (72%)
Writing library             : x264 core 146 r2538 121396c
Default                     : Yes
Forced                      : No

Audio
ID                          : 2
Format                      : DTS
Format/Info                 : Digital Theater Systems
Format profile              : MA / Core
Mode                        : 16
Format settings, Endianness : Big
Codec ID                    : A_DTS
Duration                    : 2h 25mn
Bit rate mode               : Variable / Constant
Bit rate                    : 2 889 Kbps / 1 509 Kbps
Channel(s)                  : 6 channels
Channel positions           : Front: L C R, Side: L R, LFE
Sampling rate               : 48.0 KHz
Frame rate                  : 93.750 fps (512 spf)
Bit depth                   : 24 bits
Compression mode            : Lossless / Lossy
Stream size                 : 2.93 GiB (28%)
Default                     : Yes
Forced                      : No

Text
ID                          : 3
Format                      : UTF-8
Codec ID                    : S_TEXT/UTF8
Codec ID/Info               : UTF-8 Plain Text
Duration                    : 2h 21mn
Bit rate                    : 64 bps
Count of elements           : 2208
Stream size                 : 67.0 KiB (0%)
Language                    : English
Default                     : Yes
Forced                      : No

Menu
00:00:00.000                : en:Chapter 01
00:00:25.483                : en:Chapter 02
00:00:30.522                : en:Chapter 03
00:02:22.605                : en:Chapter 04
00:05:17.522                : en:Chapter 05
00:08:56.522                : en:Chapter 06
00:08:58.522                : en:Chapter 07
00:13:55.522                : en:Chapter 08
00:19:42.355                : en:Chapter 09
00:20:53.522                : en:Chapter 10
00:25:32.522                : en:Chapter 11
00:26:41.522                : en:Chapter 12
00:35:43.522                : en:Chapter 13
00:45:16.522                : en:Chapter 14
00:54:52.522                : en:Chapter 15
01:04:03.522                : en:Chapter 16
01:09:58.522                : en:Chapter 17
01:15:20.522                : en:Chapter 18
01:21:20.522                : en:Chapter 19
01:29:22.522                : en:Chapter 20
01:34:33.772                : en:Chapter 21
01:40:25.522                : en:Chapter 22
01:43:58.522                : en:Chapter 23
01:48:35.522                : en:Chapter 24
01:55:52.522                : en:Chapter 25
01:59:01.522                : en:Chapter 26
02:02:09.522                : en:Chapter 27
02:10:08.522                : en:Chapter 28
02:21:59.522                : en:Chapter 29





Code:
http://rapidpaid.com/3b5be35dbc10bdb8/KVPG(2016)_-_BDrip_-_1080P_-_x264_-_DTS_HDMA_-_Esubs_-_BluMaster.mkv