Code:
Format                                   : Matroska
Format version                           : Version 2
File size                                : 2.80 GiB
Duration                                 : 1 h 31 min
Overall bit rate                         : 4 367 kb/s
Encoded date                             : UTC 2017-09-11 11:09:25
Writing application                      : mkvmerge v7.7.0 ('Six                   
language                                 : English 
source                                   : 1080p scene  


Video
ID                                       : 1
Format                                   : AVC
Format/Info                              : Advanced Video Codec
Format profile                           : High@L4.1
Format settings, CABAC                   : Yes
Format settings, ReFrames                : 4 frames
Codec ID                                 : V_MPEG4/ISO/AVC
Duration                                 : 1 h 31 min
Bit rate                                 : 3 981 kb/s
Width                                    : 1 280 pixels
Height                                   : 528 pixels
Display aspect ratio                     : 2.40:1
Frame rate mode                          : Constant
Frame rate                               : 23.976 (24000/1001) FPS
Color space                              : YUV
Chroma subsampling                       : 4:2:0
Bit depth                                : 8 bits
Scan type                                : Progressive
Bits/(Pixel*Frame)                       : 0.246
Stream size                              : 2.55 GiB (91%)
Writing library                          : x264 core 146 r2538 121396c
Default                                  : Yes
Forced                                   : No

Audio
ID                                       : 2
Format                                   : AC-3
Format/Info                              : Audio Coding 3
Format settings, Endianness              : Big
Codec ID                                 : A_AC3
Duration                                 : 1 h 31 min
Bit rate mode                            : Constant
Bit rate                                 : 384 kb/s
Channel(s)                               : 6 channels
Channel positions                        : Front: L C R, Side: L R, LFE
Sampling rate                            : 48.0 kHz
Frame rate                               : 31.250 FPS (1536 spf)
Bit depth                                : 16 bits
Compression mode                         : Lossy
Stream size                              : 252 MiB (9%)
Language                                 : English
Service kind                             : Complete Main
Default                                  : Yes
Forced                                   : No






Code:
http://rapidpaid.com/715719cf130c4f34/Gun_Shy_2017_720p_WEB-DL_X264_MutzNutz.mkv
Code:
http://rapidpaid.com/ae34362d3f694bad/Gun_Shy_2017_720p_WEB-DL_X264_MutzNutz_English.srt