Code:
Format : Matroska 
Format version : Version 4 / Version 2 
File size : 17.5 GiB 
Duration : 1 h 31 min 
Overall bit rate mode : Variable 
Overall bit rate : 27.3 Mb/s 
Movie name : Underworld-Blood Wars 2016 BluRay 1080p REMUX-d3g 
Encoded date : UTC 2017-03-16 12:54:31 
Writing application : DVDFab 10.0.2.2 
Writing library : libebml v1.3.4 + libmatroska v1.4.5 

Video 
ID : 1 
Format : AVC 
Format/Info : Advanced Video Codec 
Format profile : High@L4.1 
Format settings, CABAC : Yes 
Format settings, ReFrames : 2 frames 
Format settings, GOP : M=1, N=10 
Codec ID : V_MPEG4/ISO/AVC 
Duration : 1 h 31 min 
Bit rate mode : Variable 
Bit rate : 24.9 Mb/s 
Width : 1 920 pixels 
Height : 1 080 pixels 
Display aspect ratio : 16:9 
Frame rate mode : Constant 
Frame rate : 23.976 (24000/1001) FPS 
Color space : YUV 
Chroma subsampling : 4:2:0 
Bit depth : 8 bits 
Scan type : Progressive 
Bits/(Pixel*Frame) : 0.502 
Stream size : 16.0 GiB (91%) 
Default : Yes 
Forced : No 

Audio 
ID : 2 
Format : DTS 
Format/Info : Digital Theater Systems 
Format profile : MA / Core 
Mode : 16 
Format settings, Endianness : Big 
Codec ID : A_DTS 
Duration : 1 h 31 min 
Bit rate mode : Variable / Constant 
Bit rate : 2 354 kb/s / 1 509 kb/s 
Channel(s) : 6 channels 
Channel positions : Front: L C R, Side: L R, LFE 
Sampling rate : 48.0 kHz 
Frame rate : 93.750 FPS (512 spf) 
Bit depth : 16 bits 
Compression mode : Lossless / Lossy 
Stream size : 1.50 GiB (9%) 
Language : English 
Default : Yes 
Forced : No 

Text #1 
ID : 3 
Format : VobSub 
Codec ID : S_VOBSUB 
Codec ID/Info : Picture based subtitle format used on DVDs 
Duration : 1 h 30 min 
Bit rate : 6 673 b/s 
Count of elements : 819 
Stream size : 4.32 MiB (0%) 
Language : English 
Default : No 
Forced : No





Code:
http://rapidpaid.com/5a80fde5817b24c0/Underworld-Blood_Wars_2016_BluRay_1080p_REMUX-d3g.part1.rar
http://rapidpaid.com/be1b1e9c96c531c4/Underworld-Blood_Wars_2016_BluRay_1080p_REMUX-d3g.part2.rar
http://rapidpaid.com/e1b735c310f4598a/Underworld-Blood_Wars_2016_BluRay_1080p_REMUX-d3g.part3.rar
http://rapidpaid.com/802b5e6842dd48a1/Underworld-Blood_Wars_2016_BluRay_1080p_REMUX-d3g.part4.rar
http://rapidpaid.com/74781483cf58f389/Underworld-Blood_Wars_2016_BluRay_1080p_REMUX-d3g.part5.rar
Search or browse all publicly shared files on this site using the form below.

Code:
http://rapidpaid.com/search.html