Poster Boys (2017) - 1CD - DesiPreDVD-Rip - Hindi - x264 - MP3 - Mafiaking - M2Tv












Code:
Ratings: 6.8/10

Genere: Comedy 

General
Complete name : Poster Boys (2017) - 1CD - DesiPreDVD-Rip - Hindi - x264 - MP3 - Mafiaking - M2Tv.mkv
Format : Matroska
Format version : Version 4 / Version 2
File size : 700 MiB
Duration : 2 h 5 min
Overall bit rate : 778 kb/s
Movie name : Poster Boys (2017) - 1CD - DesiPreDVD-Rip - Hindi - x264 - MP3 - Mafiaking - M2Tv

Video
ID : 1
Format : AVC
Format profile : High@L4.1
Codec ID : V_MPEG4/ISO/AVC
Duration : 2 h 5 min
Bit rate : 696 kb/s
Width : 640 pixels
Height : 256 pixels
Frame rate : 25.000 FPS
Stream size : 627 MiB (89%)
Title : Mafiaking
Language : Hindi
Default : Yes
Forced : No

Audio
ID : 2
Format : MPEG Audio
Codec ID/Hint : MP3
Duration : 2 h 5 min
Bit rate : 80.0 kb/s
Channel(s) : 2 channels
Stream size : 72.0 MiB (10%)
Title : Mafiaking
Language : Hindi
Default : Yes
Forced : No





http://rapidpaid.com/a443dc2502c0b3b...ing_-_M2Tv.mkv

Search or browse all publicly shared files on this site using the form below.

http://rapidpaid.com/search.html