Zoom Zumba Dance Fitness Party Music Video Mash Up 720p By Sagarsingha


Code:
General
Complete name : Zoom Zumba Dance Fitness Party Music Video MashUp.mp4
Format : MPEG-4
Format profile : Base Media / Version 2
Codec ID : mp42 (isom/mp42)
File size : 70.7 MiB
Duration : 4 min 12 s
Overall bit rate mode : Variable
Overall bit rate : 2 353 kb/s

Video #1
ID : 1
Format : AVC
Format/Info : Advanced Video Codec
Format profile : Main@L3.1
Format settings, CABAC : Yes
Format settings, ReFrames : 3 frames
Codec ID : avc1
Codec ID/Info : Advanced Video Coding
Duration : 4 min 12 s
Bit rate : 2 223 kb/s
Width : 1 280 pixels
Height : 720 pixels
Display aspect ratio : 16:9
Frame rate mode : Constant
Frame rate : 25.000 FPS
Color space : YUV
Chroma subsampling : 4:2:0
Bit depth : 8 bits
Scan type : Progressive
Bits/(Pixel*Frame) : 0.097
Stream size : 66.8 MiB (95%)


Audio #2
ID : 2
Format : AAC
Format/Info : Advanced Audio Codec
Format profile : LC
Codec ID : 40
Duration : 4 min 12 s
Bit rate mode : Variable
Bit rate : 126 kb/s
Channel(s) : 2 channels
Channel positions : Front: L R
Sampling rate : 44.1 kHz
Frame rate : 43.066 FPS (1024 spf)
Compression mode : Lossy
Stream size : 3.78 MiB (5%)




http://rapidpaid.com/a384345101b853b...agarsingha.mp4

Search or browse all publicly shared files on this site using the form below.

http://rapidpaid.com/search.html